osu file format v14

[General]
AudioFilename: charlotte op.mp3
AudioLeadIn: 1500
PreviewTime: 61165
Countdown: 0
SampleSet: Normal
StackLeniency: 0.3
Mode: 1
LetterboxInBreaks: 0
WidescreenStoryboard: 0

[Editor]
Bookmarks: 7080,13480,19880,23080,29480,35880,42280,48680,55080,61480,67880,74280,80680,87080,88480
DistanceSpacing: 1.5
BeatDivisor: 4
GridSize: 32
TimelineZoom: 2.699999

[Metadata]
Title:Bravely You (TV Size)
TitleUnicode:Bravely You (TV Size)
Artist:Lia
ArtistUnicode:Lia
Creator:pkhg
Version:Kano's Inner Oni
Source:Charlotte
Tags:charlotte kanopu Shurelia ErunamoJAZZ ritsu-tanaika anant-garde eyes jun maeda opening シャーロット KEY
BeatmapID:746858
BeatmapSetID:334239

[Difficulty]
HPDrainRate:5
CircleSize:4
OverallDifficulty:6
ApproachRate:8
SliderMultiplier:1.4
SliderTickRate:1

[Events]
//Background and Video events
0,0,"Tomori.Nao.full.1905975.jpg",0,120
Video,20,"opto.flv",0,0
//Break Periods
//Storyboard Layer 0 (Background)
//Storyboard Layer 1 (Fail)
//Storyboard Layer 2 (Pass)
//Storyboard Layer 3 (Foreground)
//Storyboard Sound Samples

[TimingPoints]
665,400,4,1,0,60,1,0
48665,-105.263157894737,4,1,0,60,0,0
48765,-111.111111111111,4,1,0,40,0,0
61465,-100,4,1,0,70,0,1
73865,-100,4,1,0,70,0,0
74265,-100,4,1,0,70,0,1
88565,-100,4,1,0,70,0,0

[Colours]
Combo1 : 47,47,255
Combo2 : 202,202,202
Combo3 : 138,138,255
Combo4 : 204,64,91

[HitObjects]
256,192,665,5,4,0:0:0:0:
256,192,965,1,0,0:0:0:0:
256,192,1065,1,8,0:0:0:0:
256,192,1265,1,0,0:0:0:0:
256,192,1365,1,0,0:0:0:0:
256,192,1465,1,8,0:0:0:0:
256,192,1665,1,0,0:0:0:0:
256,192,1865,1,8,0:0:0:0:
256,192,2165,1,0,0:0:0:0:
256,192,2265,1,8,0:0:0:0:
256,192,2465,1,0,0:0:0:0:
256,192,2665,1,8,0:0:0:0:
256,192,2865,1,0,0:0:0:0:
256,192,2965,1,0,0:0:0:0:
256,192,3065,1,8,0:0:0:0:
256,192,3265,1,0,0:0:0:0:
256,192,3465,1,8,0:0:0:0:
256,192,3665,1,8,0:0:0:0:
256,192,3865,1,0,0:0:0:0:
256,192,4165,1,0,0:0:0:0:
256,192,4265,1,8,0:0:0:0:
256,192,4465,1,0,0:0:0:0:
256,192,4665,1,8,0:0:0:0:
256,192,4865,1,0,0:0:0:0:
256,192,5065,1,8,0:0:0:0:
256,192,5165,1,8,0:0:0:0:
256,192,5265,1,0,0:0:0:0:
256,192,5465,1,8,0:0:0:0:
256,192,5765,1,0,0:0:0:0:
256,192,5865,1,8,0:0:0:0:
256,192,6065,1,0,0:0:0:0:
256,192,6265,1,8,0:0:0:0:
256,192,6465,1,0,0:0:0:0:
256,192,6665,1,8,0:0:0:0:
256,192,6865,1,8,0:0:0:0:
256,192,7065,1,4,0:0:0:0:
256,192,7465,1,8,0:0:0:0:
256,192,7665,1,0,0:0:0:0:
256,192,7765,1,0,0:0:0:0:
256,192,7865,1,0,0:0:0:0:
256,192,8065,1,0,0:0:0:0:
256,192,8265,1,8,0:0:0:0:
256,192,8465,1,8,0:0:0:0:
256,192,8665,1,0,0:0:0:0:
256,192,8965,1,0,0:0:0:0:
256,192,9065,1,8,0:0:0:0:
256,192,9265,1,0,0:0:0:0:
256,192,9365,1,0,0:0:0:0:
256,192,9465,1,0,0:0:0:0:
256,192,9665,1,0,0:0:0:0:
256,192,9865,1,8,0:0:0:0:
256,192,10265,1,0,0:0:0:0:
256,192,10465,1,8,0:0:0:0:
256,192,10665,1,8,0:0:0:0:
256,192,10865,1,0,0:0:0:0:
256,192,10965,1,0,0:0:0:0:
256,192,11065,1,0,0:0:0:0:
256,192,11265,1,0,0:0:0:0:
256,192,11465,1,8,0:0:0:0:
256,192,11665,1,8,0:0:0:0:
256,192,11765,1,8,0:0:0:0:
256,192,11865,1,0,0:0:0:0:
256,192,12065,1,0,0:0:0:0:
256,192,12265,1,8,0:0:0:0:
256,192,12365,1,0,0:0:0:0:
256,192,12465,1,0,0:0:0:0:
256,192,12565,1,8,0:0:0:0:
256,192,12665,1,0,0:0:0:0:
256,192,12765,1,0,0:0:0:0:
256,192,12865,1,8,0:0:0:0:
256,192,12965,1,0,0:0:0:0:
256,192,13065,1,8,0:0:0:0:
256,192,13165,1,8,0:0:0:0:
256,192,13265,1,0,0:0:0:0:
256,192,13465,1,4,0:0:0:0:
256,192,13865,1,8,0:0:0:0:
256,192,14065,1,8,0:0:0:0:
256,192,14165,1,8,0:0:0:0:
256,192,14265,1,0,0:0:0:0:
256,192,14465,1,0,0:0:0:0:
256,192,14665,1,8,0:0:0:0:
256,192,14865,1,8,0:0:0:0:
256,192,15065,1,0,0:0:0:0:
256,192,15365,1,0,0:0:0:0:
256,192,15465,1,8,0:0:0:0:
256,192,15665,1,0,0:0:0:0:
256,192,15765,1,0,0:0:0:0:
256,192,15865,1,0,0:0:0:0:
256,192,16065,1,0,0:0:0:0:
256,192,16265,1,8,0:0:0:0:
256,192,16665,1,0,0:0:0:0:
256,192,17065,1,8,0:0:0:0:
256,192,17265,1,0,0:0:0:0:
256,192,17365,1,8,0:0:0:0:
256,192,17465,1,0,0:0:0:0:
256,192,17665,1,0,0:0:0:0:
256,192,17865,1,8,0:0:0:0:
256,192,18265,1,0,0:0:0:0:
256,192,18465,1,0,0:0:0:0:
256,192,18665,1,8,0:0:0:0:
256,192,18765,1,0,0:0:0:0:
256,192,18865,1,0,0:0:0:0:
256,192,18965,1,8,0:0:0:0:
256,192,19065,1,0,0:0:0:0:
256,192,19165,1,8,0:0:0:0:
256,192,19265,1,8,0:0:0:0:
256,192,19365,1,0,0:0:0:0:
256,192,19465,1,8,0:0:0:0:
256,192,19565,1,8,0:0:0:0:
256,192,19665,1,0,0:0:0:0:
256,192,19865,1,4,0:0:0:0:
256,192,20165,1,0,0:0:0:0:
256,192,20265,1,8,0:0:0:0:
256,192,20465,1,0,0:0:0:0:
256,192,20565,1,0,0:0:0:0:
256,192,20665,1,0,0:0:0:0:
256,192,20865,1,8,0:0:0:0:
256,192,21265,1,8,0:0:0:0:
256,192,21465,1,0,0:0:0:0:
256,192,21665,1,0,0:0:0:0:
256,192,21765,1,0,0:0:0:0:
256,192,21865,1,8,0:0:0:0:
256,192,22065,1,0,0:0:0:0:
256,192,22265,1,8,0:0:0:0:
256,192,22465,1,0,0:0:0:0:
256,192,22665,1,8,0:0:0:0:
256,192,22765,1,8,0:0:0:0:
256,192,22865,1,8,0:0:0:0:
256,192,23065,1,4,0:0:0:0:
256,192,23465,1,8,0:0:0:0:
256,192,23665,1,8,0:0:0:0:
256,192,23865,1,0,0:0:0:0:
256,192,24265,1,8,0:0:0:0:
256,192,24665,1,0,0:0:0:0:
256,192,25065,1,8,0:0:0:0:
256,192,25265,1,8,0:0:0:0:
256,192,25465,1,0,0:0:0:0:
256,192,25665,1,0,0:0:0:0:
256,192,25865,1,8,0:0:0:0:
256,192,26265,1,4,0:0:0:0:
256,192,26665,1,8,0:0:0:0:
256,192,26865,1,8,0:0:0:0:
256,192,27065,1,0,0:0:0:0:
256,192,27165,1,0,0:0:0:0:
256,192,27265,1,0,0:0:0:0:
256,192,27465,1,8,0:0:0:0:
256,192,27865,1,0,0:0:0:0:
256,192,28065,1,0,0:0:0:0:
256,192,28265,1,8,0:0:0:0:
256,192,28465,1,8,0:0:0:0:
256,192,28665,1,0,0:0:0:0:
256,192,28765,1,0,0:0:0:0:
256,192,28865,1,0,0:0:0:0:
256,192,29065,1,8,0:0:0:0:
256,192,29265,1,8,0:0:0:0:
256,192,29465,1,4,0:0:0:0:
256,192,29865,1,8,0:0:0:0:
256,192,30065,1,8,0:0:0:0:
256,192,30265,1,0,0:0:0:0:
256,192,30365,1,0,0:0:0:0:
256,192,30465,1,0,0:0:0:0:
256,192,30665,1,8,0:0:0:0:
256,192,30865,1,8,0:0:0:0:
256,192,31065,1,0,0:0:0:0:
256,192,31165,1,0,0:0:0:0:
256,192,31265,1,8,0:0:0:0:
256,192,31465,1,8,0:0:0:0:
256,192,31665,1,8,0:0:0:0:
256,192,31865,1,0,0:0:0:0:
256,192,32065,1,0,0:0:0:0:
256,192,32265,1,8,0:0:0:0:
256,192,32665,1,4,0:0:0:0:
256,192,33065,1,8,0:0:0:0:
256,192,33265,1,8,0:0:0:0:
256,192,33465,1,0,0:0:0:0:
256,192,33565,1,0,0:0:0:0:
256,192,33665,1,0,0:0:0:0:
256,192,33865,1,8,0:0:0:0:
256,192,34065,1,8,0:0:0:0:
256,192,34265,1,0,0:0:0:0:
256,192,34365,1,0,0:0:0:0:
256,192,34465,1,8,0:0:0:0:
256,192,34665,1,8,0:0:0:0:
256,192,34865,1,8,0:0:0:0:
256,192,34965,1,8,0:0:0:0:
256,192,35065,1,0,0:0:0:0:
256,192,35265,1,0,0:0:0:0:
256,192,35465,1,8,0:0:0:0:
256,192,35865,1,4,0:0:0:0:
256,192,36065,1,0,0:0:0:0:
256,192,36165,1,0,0:0:0:0:
256,192,36265,1,8,0:0:0:0:
256,192,36465,1,8,0:0:0:0:
256,192,36665,1,0,0:0:0:0:
256,192,37065,1,8,0:0:0:0:
256,192,37265,1,8,0:0:0:0:
256,192,37465,1,0,0:0:0:0:
256,192,37565,1,0,0:0:0:0:
256,192,37665,1,0,0:0:0:0:
256,192,37865,1,8,0:0:0:0:
256,192,38065,1,8,0:0:0:0:
256,192,38265,1,0,0:0:0:0:
256,192,38465,1,0,0:0:0:0:
256,192,38665,1,8,0:0:0:0:
256,192,39065,1,4,0:0:0:0:
256,192,39265,1,0,0:0:0:0:
256,192,39365,1,0,0:0:0:0:
256,192,39465,1,8,0:0:0:0:
256,192,39665,1,8,0:0:0:0:
256,192,39865,1,0,0:0:0:0:
256,192,39965,1,0,0:0:0:0:
256,192,40065,1,0,0:0:0:0:
256,192,40265,1,8,0:0:0:0:
256,192,40665,1,0,0:0:0:0:
256,192,40865,1,0,0:0:0:0:
256,192,41065,1,8,0:0:0:0:
256,192,41265,1,8,0:0:0:0:
256,192,41465,1,0,0:0:0:0:
256,192,41565,1,0,0:0:0:0:
256,192,41665,1,0,0:0:0:0:
256,192,41865,1,8,0:0:0:0:
256,192,42265,1,4,0:0:0:0:
256,192,42465,1,0,0:0:0:0:
256,192,42565,1,0,0:0:0:0:
256,192,42665,1,8,0:0:0:0:
256,192,42865,1,8,0:0:0:0:
256,192,43065,1,0,0:0:0:0:
256,192,43165,1,0,0:0:0:0:
256,192,43265,1,0,0:0:0:0:
256,192,43465,1,8,0:0:0:0:
256,192,43865,1,0,0:0:0:0:
256,192,44065,1,0,0:0:0:0:
256,192,44165,1,0,0:0:0:0:
256,192,44265,1,8,0:0:0:0:
256,192,44465,1,8,0:0:0:0:
256,192,44565,1,8,0:0:0:0:
256,192,44665,1,0,0:0:0:0:
256,192,44865,1,0,0:0:0:0:
256,192,45065,1,8,0:0:0:0:
256,192,45465,1,4,0:0:0:0:
256,192,45665,1,0,0:0:0:0:
256,192,45765,1,0,0:0:0:0:
256,192,45865,1,8,0:0:0:0:
256,192,46065,1,8,0:0:0:0:
256,192,46265,1,0,0:0:0:0:
256,192,46365,1,0,0:0:0:0:
256,192,46465,1,0,0:0:0:0:
256,192,46665,1,8,0:0:0:0:
256,192,46865,1,8,0:0:0:0:
256,192,47065,1,0,0:0:0:0:
256,192,47265,1,0,0:0:0:0:
256,192,47465,1,8,0:0:0:0:
256,192,47565,1,8,0:0:0:0:
256,192,47665,1,8,0:0:0:0:
256,192,47865,1,0,0:0:0:0:
256,192,47965,1,0,0:0:0:0:
256,192,48065,1,0,0:0:0:0:
256,192,48165,1,0,0:0:0:0:
256,192,48265,1,8,0:0:0:0:
256,192,48365,1,8,0:0:0:0:
256,192,48465,1,8,0:0:0:0:
256,192,48665,1,4,0:0:0:0:
256,192,48865,1,0,0:0:0:0:
256,192,49065,1,8,0:0:0:0:
256,192,49265,1,0,0:0:0:0:
256,192,49365,1,0,0:0:0:0:
256,192,49465,1,8,0:0:0:0:
256,192,49665,1,0,0:0:0:0:
256,192,49865,1,8,0:0:0:0:
256,192,50265,1,8,0:0:0:0:
256,192,50465,1,0,0:0:0:0:
256,192,50565,1,0,0:0:0:0:
256,192,50665,1,8,0:0:0:0:
256,192,50865,1,0,0:0:0:0:
256,192,51065,1,8,0:0:0:0:
256,192,51265,1,0,0:0:0:0:
256,192,51465,1,8,0:0:0:0:
256,192,51865,1,8,0:0:0:0:
256,192,52065,1,0,0:0:0:0:
256,192,52265,1,8,0:0:0:0:
256,192,52465,1,0,0:0:0:0:
256,192,52565,1,0,0:0:0:0:
256,192,52665,1,8,0:0:0:0:
256,192,52865,1,0,0:0:0:0:
256,192,53065,1,8,0:0:0:0:
256,192,53465,1,8,0:0:0:0:
256,192,53565,1,8,0:0:0:0:
256,192,53665,1,0,0:0:0:0:
256,192,53865,1,8,0:0:0:0:
256,192,54065,1,0,0:0:0:0:
256,192,54165,1,0,0:0:0:0:
256,192,54265,1,8,0:0:0:0:
256,192,54465,1,0,0:0:0:0:
256,192,54665,1,8,0:0:0:0:
256,192,54865,1,8,0:0:0:0:
256,192,55065,1,8,0:0:0:0:
256,192,55265,1,0,0:0:0:0:
256,192,55465,1,8,0:0:0:0:
256,192,55665,1,0,0:0:0:0:
256,192,55765,1,0,0:0:0:0:
256,192,55865,1,8,0:0:0:0:
256,192,56065,1,0,0:0:0:0:
256,192,56265,1,8,0:0:0:0:
256,192,56665,1,8,0:0:0:0:
256,192,56865,1,0,0:0:0:0:
256,192,56965,1,0,0:0:0:0:
256,192,57065,1,8,0:0:0:0:
256,192,57265,1,8,0:0:0:0:
256,192,57365,1,8,0:0:0:0:
256,192,57465,1,0,0:0:0:0:
256,192,57665,1,0,0:0:0:0:
256,192,57865,1,8,0:0:0:0:
256,192,58065,1,8,0:0:0:0:
256,192,58265,1,8,0:0:0:0:
256,192,58465,1,0,0:0:0:0:
256,192,58665,1,8,0:0:0:0:
256,192,58865,1,0,0:0:0:0:
256,192,58965,1,0,0:0:0:0:
256,192,59065,1,8,0:0:0:0:
256,192,59265,1,0,0:0:0:0:
256,192,59465,1,8,0:0:0:0:
256,192,59665,1,0,0:0:0:0:
256,192,59865,1,8,0:0:0:0:
256,192,59965,1,8,0:0:0:0:
256,192,60065,1,0,0:0:0:0:
256,192,60265,1,8,0:0:0:0:
256,192,60465,1,0,0:0:0:0:
256,192,60565,1,0,0:0:0:0:
256,192,60665,1,8,0:0:0:0:
256,192,60865,1,0,0:0:0:0:
256,192,61065,1,8,0:0:0:0:
256,192,61265,1,8,0:0:0:0:
256,192,61465,1,4,0:0:0:0:
256,192,61765,1,0,0:0:0:0:
256,192,61865,1,8,0:0:0:0:
256,192,62065,1,8,0:0:0:0:
256,192,62165,1,8,0:0:0:0:
256,192,62265,1,0,0:0:0:0:
256,192,62465,1,0,0:0:0:0:
256,192,62665,1,8,0:0:0:0:
256,192,62865,1,8,0:0:0:0:
256,192,63065,1,0,0:0:0:0:
256,192,63265,1,0,0:0:0:0:
256,192,63365,1,0,0:0:0:0:
256,192,63465,1,8,0:0:0:0:
256,192,63665,1,0,0:0:0:0:
256,192,63765,1,8,0:0:0:0:
256,192,63865,1,0,0:0:0:0:
256,192,63965,1,0,0:0:0:0:
256,192,64065,1,0,0:0:0:0:
256,192,64265,1,8,0:0:0:0:
256,192,64465,1,8,0:0:0:0:
256,192,64565,1,8,0:0:0:0:
256,192,64665,1,0,0:0:0:0:
256,192,64865,1,0,0:0:0:0:
256,192,65065,1,8,0:0:0:0:
256,192,65265,1,8,0:0:0:0:
256,192,65465,1,0,0:0:0:0:
256,192,65865,1,8,0:0:0:0:
256,192,66065,1,8,0:0:0:0:
256,192,66265,1,0,0:0:0:0:
256,192,66465,1,0,0:0:0:0:
256,192,66565,1,0,0:0:0:0:
256,192,66665,1,8,0:0:0:0:
256,192,66865,1,0,0:0:0:0:
256,192,67065,1,8,0:0:0:0:
256,192,67165,1,8,0:0:0:0:
256,192,67265,1,0,0:0:0:0:
256,192,67365,1,0,0:0:0:0:
256,192,67465,1,8,0:0:0:0:
256,192,67665,1,8,0:0:0:0:
256,192,67865,1,4,0:0:0:0:
256,192,68165,1,0,0:0:0:0:
256,192,68265,1,8,0:0:0:0:
256,192,68465,1,8,0:0:0:0:
256,192,68565,1,8,0:0:0:0:
256,192,68665,1,0,0:0:0:0:
256,192,68865,1,0,0:0:0:0:
256,192,69065,1,8,0:0:0:0:
256,192,69265,1,8,0:0:0:0:
256,192,69465,1,4,0:0:0:0:
256,192,69665,1,0,0:0:0:0:
256,192,69765,1,0,0:0:0:0:
256,192,69865,1,8,0:0:0:0:
256,192,70065,1,8,0:0:0:0:
256,192,70165,1,8,0:0:0:0:
256,192,70265,1,0,0:0:0:0:
256,192,70365,1,8,0:0:0:0:
256,192,70465,1,0,0:0:0:0:
256,192,70665,1,8,0:0:0:0:
256,192,70865,1,8,0:0:0:0:
256,192,71065,1,4,0:0:0:0:
256,192,71365,1,0,0:0:0:0:
256,192,71465,1,8,0:0:0:0:
256,192,71665,1,8,0:0:0:0:
256,192,71765,1,8,0:0:0:0:
256,192,71865,1,0,0:0:0:0:
256,192,71965,1,8,0:0:0:0:
256,192,72065,1,0,0:0:0:0:
256,192,72165,1,0,0:0:0:0:
256,192,72265,1,8,0:0:0:0:
256,192,72465,1,8,0:0:0:0:
256,192,72665,1,4,0:0:0:0:
256,192,72865,1,0,0:0:0:0:
256,192,72965,1,0,0:0:0:0:
256,192,73065,1,8,0:0:0:0:
256,192,73265,1,8,0:0:0:0:
256,192,73365,1,8,0:0:0:0:
256,192,73465,1,0,0:0:0:0:
256,192,73565,1,8,0:0:0:0:
256,192,73665,1,0,0:0:0:0:
256,192,73765,1,0,0:0:0:0:
256,192,73865,1,8,0:0:0:0:
256,192,73965,1,0,0:0:0:0:
256,192,74065,1,0,0:0:0:0:
256,192,74165,1,0,0:0:0:0:
256,192,74265,1,8,0:0:0:0:
256,192,74565,1,0,0:0:0:0:
256,192,74665,1,8,0:0:0:0:
256,192,74865,1,8,0:0:0:0:
256,192,74965,1,8,0:0:0:0:
256,192,75065,1,0,0:0:0:0:
256,192,75165,1,8,0:0:0:0:
256,192,75265,1,0,0:0:0:0:
256,192,75465,1,8,0:0:0:0:
256,192,75665,1,8,0:0:0:0:
256,192,75765,1,8,0:0:0:0:
256,192,75865,1,0,0:0:0:0:
256,192,76065,1,0,0:0:0:0:
256,192,76265,1,8,0:0:0:0:
256,192,76465,1,0,0:0:0:0:
256,192,76565,1,8,0:0:0:0:
256,192,76665,1,0,0:0:0:0:
256,192,76765,1,0,0:0:0:0:
256,192,76865,1,0,0:0:0:0:
256,192,77065,1,8,0:0:0:0:
256,192,77265,1,8,0:0:0:0:
256,192,77365,1,8,0:0:0:0:
256,192,77465,1,0,0:0:0:0:
256,192,77665,1,0,0:0:0:0:
256,192,77865,1,8,0:0:0:0:
256,192,78065,1,8,0:0:0:0:
256,192,78265,1,0,0:0:0:0:
256,192,78365,1,8,0:0:0:0:
256,192,78465,1,0,0:0:0:0:
256,192,78665,1,8,0:0:0:0:
256,192,78765,1,0,0:0:0:0:
256,192,78865,1,8,0:0:0:0:
256,192,78965,1,8,0:0:0:0:
256,192,79065,1,0,0:0:0:0:
256,192,79265,1,0,0:0:0:0:
256,192,79365,1,0,0:0:0:0:
256,192,79465,1,8,0:0:0:0:
256,192,79665,1,8,0:0:0:0:
256,192,79765,1,8,0:0:0:0:
256,192,79865,1,0,0:0:0:0:
256,192,79965,1,0,0:0:0:0:
256,192,80065,1,8,0:0:0:0:
256,192,80165,1,0,0:0:0:0:
256,192,80265,1,8,0:0:0:0:
256,192,80465,1,8,0:0:0:0:
256,192,80665,1,4,0:0:0:0:
256,192,80965,1,0,0:0:0:0:
256,192,81065,1,8,0:0:0:0:
256,192,81265,1,8,0:0:0:0:
256,192,81365,1,8,0:0:0:0:
256,192,81465,1,0,0:0:0:0:
256,192,81665,1,0,0:0:0:0:
256,192,81865,1,8,0:0:0:0:
256,192,81965,1,8,0:0:0:0:
256,192,82065,1,8,0:0:0:0:
256,192,82265,1,4,0:0:0:0:
256,192,82465,1,0,0:0:0:0:
256,192,82565,1,0,0:0:0:0:
256,192,82665,1,8,0:0:0:0:
256,192,82865,1,8,0:0:0:0:
256,192,82965,1,8,0:0:0:0:
256,192,83065,1,0,0:0:0:0:
256,192,83165,1,8,0:0:0:0:
256,192,83265,1,0,0:0:0:0:
256,192,83465,1,8,0:0:0:0:
256,192,83565,1,8,0:0:0:0:
256,192,83665,1,8,0:0:0:0:
256,192,83865,1,4,0:0:0:0:
256,192,84165,1,0,0:0:0:0:
256,192,84265,1,8,0:0:0:0:
256,192,84465,1,8,0:0:0:0:
256,192,84565,1,8,0:0:0:0:
256,192,84665,1,0,0:0:0:0:
256,192,84765,1,8,0:0:0:0:
256,192,84865,1,0,0:0:0:0:
256,192,84965,1,0,0:0:0:0:
256,192,85065,1,8,0:0:0:0:
256,192,85265,1,8,0:0:0:0:
256,192,85465,1,4,0:0:0:0:
256,192,85665,1,0,0:0:0:0:
256,192,85765,1,0,0:0:0:0:
256,192,85865,1,8,0:0:0:0:
256,192,86065,1,8,0:0:0:0:
256,192,86165,1,8,0:0:0:0:
256,192,86265,1,0,0:0:0:0:
256,192,86365,1,0,0:0:0:0:
256,192,86465,1,8,0:0:0:0:
256,192,86565,1,0,0:0:0:0:
256,192,86665,1,8,0:0:0:0:
256,192,86765,1,8,0:0:0:0:
256,192,86865,1,0,0:0:0:0:
256,192,87065,1,4,0:0:0:0:
256,192,87265,1,8,0:0:0:0:
256,192,87465,1,0,0:0:0:0:
256,192,87665,1,8,0:0:0:0:
256,192,87765,1,8,0:0:0:0:
256,192,87865,1,0,0:0:0:0:
256,192,88065,1,8,0:0:0:0:
256,192,88265,1,0,0:0:0:0:
256,192,88465,1,8,0:0:0:0:
